#TITLE:I Believe;
#SUBTITLE:;
#ARTIST:Tata Young;
#TITLETRANSLIT:I Believe;
#SUBTITLETRANSLIT:;
#ARTISTTRANSLIT:Tata Young;
#CREDIT:;
#BANNER:I Believe-bn.png;
#BACKGROUND:I Believe-bg.png;
#LYRICSPATH:;
#CDTITLE:pm4cd.png;
#MUSIC:I Believe.mp3;
#OFFSET:0.040;
#SAMPLESTART:50.413;
#SAMPLELENGTH:20.000;
#SELECTABLE:YES;
#BPMS:0.000=117.020;
#STOPS:;
#BGCHANGES:;
// cache tags:
#FIRSTBEAT:1.250;
#LASTBEAT:373.250;
#SONGFILENAME:Songs/Music V.I.P ^_^/I Believe/I Believe.sm;
#HASMUSIC:1;
#HASBANNER:1;
#MUSICLENGTH:197.650;
// end cache tags

//---------------dance-single - ----------------
#NOTES:
     dance-single:
     :
     Hard:
     12:
     0.888,0.968,1.000,0.091,1.000,995.000,216.000,18.000,0.000,15.000:
0000
0000
0000
0000
0000
0100
0000
1000
0000
0010
0000
0100
0000
0000
1000
0001
,
0000
0100
0000
0001
0000
0010
0000
0000
0001
0100
0000
0010
0000
0000
0001
1000
,
0000
0010
0000
0100
0000
0010
0000
0000
1000
0010
0000
0100
0000
0000
1000
0001
,
0000
0100
0000
0001
0000
0100
0000
0000
0001
0100
0000
0010
0000
0000
0001
1000
,
0000
0010
0000
0100
0000
0101
0000
1000
0010
0101
0000
1000
0000
1010
0100
0010
,
0000
1100
0000
0010
0000
1100
0000
0010
0100
0011
0000
0001
0000
1100
0010
0100
,
0000
0011
0000
0100
0000
0011
0000
0010
0100
1010
0000
0100
0000
0011
1000
0001
,
0000
0110
0000
0001
0000
1100
0000
1000
0001
0110
0000
0010
0000
1010
0001
1000
,
0000
0110
0000
0100
0000
0011
0000
0100
0000
1010
0000
0001
0000
0100
0000
0010
,
0000
0101
0000
1000
0000
1010
0000
0100
0000
0011
0000
0100
0000
1000
0000
0010
,
0000
1100
0000
0001
0000
0110
0000
1000
0000
0011
0000
0100
0000
1000
0000
0010
,
0000
1100
0000
0010
0000
0101
0000
0100
0000
1000
0000
0001
0000
0100
0000
0010
,
0000
0001
0000
1000
0000
0011
0000
0100
0000
1010
0000
0001
0000
0100
0000
0010
,
0000
0101
0000
1000
0000
1010
0000
0100
0000
0011
0000
0100
0000
1000
0000
0010
,
0000
1100
0000
0001
0000
0110
0000
1000
0000
0011
0000
0100
0000
1000
0000
0010
,
0000
1100
0000
0010
0000
0101
0000
0100
0000
1010
0000
0001
0000
0100
0000
0010
,
0000
0101
0000
1000
0000
0100
0000
0001
1000
0010
0000
0100
0000
0010
1000
0001
,
0000
0100
0000
0001
0000
0010
0000
1000
0001
0100
0000
0010
0000
0100
0001
1000
,
0000
0010
0000
0100
0000
0010
0000
0001
1000
0010
0000
0100
0000
0010
1000
0001
,
0000
0100
0000
0001
0000
0100
0000
1000
0001
0100
0000
0010
0000
0100
0001
1000
,
0000
0010
0000
0100
0000
0001
0000
1000
0000
0101
0000
0010
0000
1000
0000
0010
,
0000
0101
0000
0100
0000
1000
0000
0010
0000
1100
0000
0010
0000
0100
0000
0010
,
0000
0011
0000
0100
0000
1000
0000
0010
0000
0101
0000
0010
0000
1000
0000
0010
,
0000
1100
0010
0001
1000
0110
0000
0000
0101
0000
0000
0110
0000
1010
0000
0000
,
0000
0011
0000
0000
0000
0101
0010
1000
0010
0101
0010
1000
0100
1010
0100
0010
,
0001
1100
0100
0010
0001
1100
0001
0010
0100
0011
1000
0001
0010
1100
0010
0100
,
1000
0011
0100
1000
0100
0011
0100
0010
0100
1010
0001
0100
1000
0011
1000
0001
,
0100
0110
1000
0001
0010
1100
0010
1000
0001
0110
1000
0010
0100
1010
0001
1000
,
0010
0110
1000
0100
0010
0101
0010
1000
0010
0101
0100
1000
0001
1010
0100
0010
,
0001
1100
0100
0010
0001
1100
1000
0010
0100
0011
1000
0001
0010
1100
0010
0100
,
1000
0011
1000
0100
0010
0011
0100
0010
0100
1010
0001
0100
0001
0011
1000
0001
,
1000
0110
0100
0001
0010
1100
0010
1000
0001
0110
1000
0010
0100
1010
0100
1000
,
0001
0110
1000
0100
0010
0002
0000
0000
0100
0000
0000
1000
0000
0100
0000
0000
,
0010
0000
0000
0100
0000
0023
0000
0000
1000
0000
0000
0100
0000
0001
1000
0001
,
1000
0001
0100
1001
0000
0231
0000
0000
0000
0010
0000
0001
0000
0010
0000
1000
,
0000
0010
0000
0001
0000
2301
0000
0000
0000
0100
0000
0010
0000
0001
0000
0010
,
0000
0100
0000
0010
0000
3012
0000
0000
0000
0100
0000
0000
0000
0010
0000
0100
,
0000
1000
0000
0100
0000
1023
0000
0000
0000
1000
0000
0100
0000
1001
0000
0100
,
0000
1100
0000
0101
0000
1031
0000
0001
1000
0010
0000
0100
0000
0010
1000
0001
,
0000
0100
0000
0001
0000
0010
0000
1000
0001
0100
0000
0010
0000
0100
0001
1000
,
0000
0010
0000
0100
0000
0020
0000
0001
1000
0001
0000
0100
0000
1000
0100
0001
,
0000
0100
0000
0001
0030
0200
0000
1000
0001
0010
0000
0001
0000
0010
0001
1000
,
0000
0010
0000
1000
0300
0001
0000
0010
0000
1100
0000
0010
0000
0001
0000
0100
,
0000
0011
0000
0100
0000
1000
0000
0001
0000
0110
0000
1000
0000
0001
0000
0100
,
0000
1010
0000
0100
0000
1000
0000
0001
0000
0110
0000
0001
0000
1000
0000
0010
,
0000
0101
0010
0001
0100
1010
0000
0000
1010
0000
0000
0110
0000
0000
0000
0100
,
0000
0011
0000
0100
0000
2000
0100
0010
0100
0010
0000
0000
0000
0001
0000
0000
,
0000
0100
0000
0000
0000
3020
1000
0100
1000
0100
0000
0000
0000
0001
0000
0000
,
0000
1000
0000
0000
0000
0032
0100
1000
0100
1000
0000
0000
0000
0010
0000
0000
,
0000
0100
0000
0000
0000
2203
0000
0000
0011
0000
0000
0011
0000
0311
0000
0000
,
0000
0101
0000
0000
3000
1100
0010
1000
0010
0101
0010
0001
0100
0011
0100
0010
,
0001
1010
0010
0100
1000
0110
0001
0010
0100
1001
0100
0001
0010
1001
0010
0100
,
1000
0101
0010
1000
0100
1001
0100
0010
0001
1010
0100
1000
0010
0101
0010
1000
,
0100
0101
0010
0001
1000
0110
1000
0010
0001
1100
0010
0001
1000
0101
0010
0100
,
1000
0011
0100
1000
0100
0011
0100
1000
0001
0110
0100
0010
0001
1010
0100
0010
,
0001
1100
1000
0100
0001
0110
1000
0001
0010
0101
1000
0001
0010
1100
0010
1000
,
0001
1010
0001
0100
1000
1010
0001
0010
0100
0011
1000
0010
0001
0101
0010
0100
,
1000
0011
1000
0100
0010
1100
0001
0010
0100
1001
0100
0001
0010
1100
0001
0010
,
1000
0110
0001
0100
0010
0002
0000
0000
0000
0000
0000
0000
0000
0000
0000
0000
,
0000
0000
0000
0000
0000
2003
0000
0000
0000
0000
0000
0000
0000
0000
0000
0000
,
0000
0000
0000
0000
0000
3020
0000
0000
0000
0000
0000
0000
0000
0000
0000
0000
,
0000
0000
0000
0000
0000
0230
0000
0000
0000
0000
0000
0000
0000
0000
0000
0000
,
0000
0000
0000
0000
0000
0311
0000
1000
0000
0110
0000
0001
0000
1100
0000
0010
,
0000
0101
0000
0100
0000
1100
0000
0010
0000
0101
0000
1000
0000
0110
0000
0010
,
0000
0101
0000
1000
0000
1100
0000
0010
0000
0110
0000
0001
0000
1010
0000
0100
,
0000
0101
0000
0001
0000
1010
0000
0100
0000
0011
0000
0001
0000
0100
1000
0010
,
0100
0001
0000
0100
0000
1001
0000
0100
0000
0101
0000
0010
0000
1000
0000
0010
,
0000
0101
0000
0010
0000
1010
0000
0001
0000
1100
0000
0010
0000
1000
0000
0010
,
0000
0101
0000
0001
0000
0110
0000
1000
0000
0101
0000
0001
0000
1000
0000
0010
,
0000
0101
0000
1000
0000
0101
0000
0010
0000
1100
0000
0010
0000
0100
0000
0001
,
0000
0110
0000
1000
0000
1010
0000
0100
0000
0011
0000
0100
0000
0010
0000
1000
,
0000
0110
0000
0001
0000
0101
0000
1000
0000
0110
0000
1000
0000
0001
0000
0100
,
0000
0101
0000
0010
0000
1100
0000
0010
0000
0110
0000
1000
0000
0001
0000
1000
,
0000
1010
0000
0001
0000
1010
0000
0100
0000
0110
0000
1000
0000
1100
0000
0010
,
0000
0011
0000
0100
0000
0001
1000
0010
0100
0001
1000
0100
0001
0010
1000
0100
,
0001
0010
1000
0100
0010
0001
0100
0010
1000
0010
0100
0001
0010
1000
0010
0100
,
0001
0010
1000
0100
1000
0010
0100
0001
0010
1000
0010
0100
0001
0010
1000
0100
,
0010
0001
0100
0010
1000
0010
0001
0100
0010
1000
0100
0001
0010
1000
0100
0001
,
0010
1000
0100
0010
0001
0100
1000
0010
0100
0001
0010
1000
0100
1000
0010
0001
,
0100
0010
0100
0001
0010
1000
0010
0001
0100
0010
1000
0100
0001
0010
1000
0100
,
1000
0001
0010
0100
0010
0001
1000
0100
0010
0100
0001
0010
1000
0010
0100
0001
,
0010
1000
0100
0001
0010
1000
0100
0010
1000
0001
0100
0010
1000
0001
0100
0001
,
0100
0001
0100
0001
0100
1010
0001
0010
0100
0011
1000
0001
0010
1100
0010
0100
,
1000
0011
0100
1000
0100
0011
0100
0010
0100
1010
0001
0100
1000
0011
1000
0001
,
0100
0110
1000
0001
0010
1100
0010
1000
0001
0110
1000
0010
0100
1010
0001
1000
,
0010
0110
1000
0100
0010
0101
0010
1000
0010
0101
0100
1000
0001
1010
0100
0010
,
0001
1100
0100
0010
0001
1100
1000
0010
0100
0011
1000
0001
0010
1100
0010
0100
,
1000
0011
1000
0100
0010
0011
0100
0010
0100
1010
0001
0100
0001
0011
1000
0001
,
1000
0110
0100
0001
0010
1100
0010
1000
0001
0110
1000
0010
0100
1010
0100
1000
,
0001
0110
1000
0100
0010
1010
0001
0010
0100
0011
1000
0001
0010
1100
0010
0100
,
1000
0011
0100
1000
0100
0011
0100
0010
0100
1010
0001
0100
1000
0011
1000
0001
,
0100
0110
1000
0001
0010
1100
0010
1000
0001
0110
1000
0010
0100
1010
0001
1000
,
0010
0110
1000
0100
0010
0002
0000
0000
0000
0000
0000
0000
0000
0000
0000
0000
,
0000
0000
0000
0000
0000
0003
0000
0000
0000
0000
0000
0000
0000
0000
0000
0000
;
